<?xml version="1.0" standalone="no"?>
<!DOCTYPE svg PUBLIC "-//W3C//DTD SVG 1.1//EN" "http://www.w3.org/Graphics/SVG/1.1/DTD/svg11.dtd" >
<svg xmlns="http://www.w3.org/2000/svg" width="100%" height="100%">
<metadata>
Created by FontXChange 20110222 at Fri Oct 11 13:56:41 2013
 By Mario Ochoa
(c) OurType, 2005. All rights reserved. Sansa is a design by Fred Smeijers
</metadata>
<defs>
<font id="Sansa-Light" horiz-adv-x="625" >
  <font-face 
    font-family="Sansa"
    font-weight="200"
    font-stretch="normal"
    units-per-em="1000"
    panose-1="2 0 3 3 0 0 0 0 0 0"
    ascent="800"
    descent="-200"
    x-height="547"
    cap-height="750"
    bbox="-203 -188 1269 1031"
    underline-thickness="21"
    underline-position="-133"
    stemh=" 43 "
    stemv=" 51 "
    unicode-range="U+0020-FB02"
  />
<missing-glyph horiz-adv-x="500" 
d="M0 0v700h500v-700h-500zM250 395l170 255h-340zM280 350l170 -255v510zM80 50h340l-170 255zM50 605v-510l170 255z" />
    <glyph glyph-name=".notdef" horiz-adv-x="500" 
d="M0 0v700h500v-700h-500zM250 395l170 255h-340zM280 350l170 -255v510zM80 50h340l-170 255zM50 605v-510l170 255z" />
    <glyph glyph-name=".notdef" unicode="&#xfffd;" horiz-adv-x="500" 
d="M0 0v700h500v-700h-500zM250 395l170 255h-340zM280 350l170 -255v510zM80 50h340l-170 255zM50 605v-510l170 255z" />
    <glyph glyph-name="space" unicode=" " horiz-adv-x="266" 
 />
    <glyph glyph-name="Eth" unicode="&#xd0;" horiz-adv-x="680" 
d="M94 0v395h-63v43h63v312h211c211 0 312 -102 312 -312v-110c0 -199 -97 -328 -297 -328h-226zM145 47h183c172 0 238 109 238 281v110c0 175 -78 265 -253 265h-168v-265h137v-43h-137v-348z" />
    <glyph glyph-name="eth" unicode="&#xf0;" horiz-adv-x="551" 
d="M523 660h-66v-660h-47v121l-35 -35c-43 -43 -94 -94 -176 -94c-94 0 -140 74 -140 168v133c0 156 109 254 265 254h86v113h-125v35h125v55h47v-55h66v-35zM355 121l55 55v328h-90c-132 0 -215 -78 -215 -207v-137c0 -70 32 -125 102 -125c59 0 106 43 148 86z" />
    <glyph glyph-name="Lslash" unicode="&#x141;" horiz-adv-x="516" 
d="M367 503l-222 -122v-213c0 -82 39 -121 121 -121h211v-47h-207c-118 0 -176 55 -176 172v181l-67 -38h-7v43l74 41v351h51v-322l214 118h8v-43z" />
    <glyph glyph-name="lslash" unicode="&#x142;" horiz-adv-x="242" 
d="M227 504l-79 -70v-434h-46v393l-79 -69h-7v47l86 76v260h-102v43h148v-262l71 63h8v-47z" />
    <glyph glyph-name="Scaron" unicode="&#x160;" horiz-adv-x="551" 
d="M238 -8c-50 0 -133 12 -187 31v51h8c39 -15 129 -35 179 -35h35c102 0 172 59 172 160c0 82 -39 128 -109 149l-109 31c-102 29 -164 74 -164 184c0 132 101 195 234 195h12c50 0 125 -12 168 -28v-46h-8c-35 11 -110 27 -160 27h-16c-105 0 -180 -43 -180 -148
c0 -75 46 -113 106 -129l109 -32c102 -29 168 -82 168 -203c0 -133 -94 -207 -226 -207h-32zM123 984h31l125 -129l125 129h32v-13l-125 -143h-63l-125 141v15z" />
    <glyph glyph-name="scaron" unicode="&#x161;" horiz-adv-x="484" 
d="M223 -8c-35 0 -102 4 -153 20v47h8c43 -16 98 -24 145 -24c86 0 152 35 152 121c0 55 -25 80 -94 98l-78 19c-76 20 -133 43 -133 137c0 102 98 145 200 145c31 0 82 -4 128 -16v-43h-7c-32 8 -85 16 -121 16c-79 0 -153 -24 -153 -102c0 -55 30 -76 86 -90l78 -19
c69 -18 141 -47 141 -145c0 -109 -86 -164 -199 -164zM90 781h31l125 -129l125 129h31v-13l-125 -143h-62l-125 141v15z" />
    <glyph glyph-name="Yacute" unicode="&#xdd;" horiz-adv-x="562" 
d="M258 0v309l-235 433v8h51l211 -387l207 387h51v-8l-234 -433v-309h-51zM201 828v16l98 140h62v-15l-136 -141h-24z" />
    <glyph glyph-name="yacute" unicode="&#xfd;" horiz-adv-x="574" 
d="M137 -188v43h101c149 0 196 75 196 223v47l-12 -8c-33 -22 -103 -54 -168 -54c-109 0 -164 70 -164 179v305h47v-305c0 -90 35 -137 125 -137c58 0 127 33 160 55l12 8v379h46v-461c0 -176 -66 -274 -242 -274h-101zM207 625v16l98 140h62v-15l-137 -141h-23z" />
    <glyph glyph-name="Thorn" unicode="&#xde;" horiz-adv-x="578" 
d="M94 0v750h51v-117h164c152 0 222 -78 222 -231c0 -148 -78 -246 -226 -246h-160v-156h-51zM324 586h-179v-383h168c121 0 167 78 167 199c0 114 -42 184 -156 184z" />
    <glyph glyph-name="thorn" unicode="&#xfe;" horiz-adv-x="551" 
d="M94 -188v938h47v-324l35 35c43 43 94 94 176 94c93 0 140 -75 140 -168v-133c0 -156 -109 -254 -265 -254h-86v-188h-47zM195 426l-54 -55v-328h89c133 0 215 78 215 207v137c0 70 -31 125 -101 125c-59 0 -106 -43 -149 -86z" />
    <glyph glyph-name="Zcaron" unicode="&#x17d;" horiz-adv-x="574" 
d="M47 0v39c109 145 336 496 402 664h-390v47h449v-39c-94 -231 -323 -565 -395 -664h414v-47h-480zM131 984h31l125 -129l125 129h31v-13l-125 -143h-62l-125 141v15z" />
    <glyph glyph-name="zcaron" unicode="&#x17e;" horiz-adv-x="500" 
d="M55 0v35c113 141 261 356 324 469h-309v43h368v-35c-51 -98 -239 -367 -321 -469h328v-43h-390zM94 781h31l125 -129l125 129h31v-13l-125 -143h-62l-125 141v15z" />
    <glyph glyph-name="onehalf" unicode="&#xbd;" horiz-adv-x="938" 
d="M545 0v51c0 59 30 112 117 147l48 20c51 20 88 50 88 92c0 61 -52 75 -111 75h-122v41h122c106 0 160 -41 160 -116c0 -68 -65 -107 -129 -132l-48 -19c-51 -19 -79 -58 -79 -108v-10h258v-41h-304zM266 0v12l375 738h31v-12l-375 -738h-31zM211 324v374l-121 -45h-16v40
l157 57h28v-426h-48z" />
    <glyph glyph-name="onequarter" unicode="&#xbc;" horiz-adv-x="938" 
d="M766 0v107h-238v32c77 89 118 193 130 287h48c-18 -106 -59 -203 -115 -278h175v136h47v-136h64v-41h-64v-107h-47zM266 0v12l375 738h31v-12l-375 -738h-31zM211 324v374l-121 -45h-16v40l157 57h28v-426h-48z" />
    <glyph glyph-name="onesuperior" unicode="&#xb9;" horiz-adv-x="412" 
d="M208 324v374l-121 -45h-16v40l158 57h27v-426h-48z" />
    <glyph glyph-name="threequarters" unicode="&#xbe;" horiz-adv-x="938" 
d="M48 324v41h134c77 0 125 31 125 93c0 57 -43 78 -112 78h-89v41h125c43 22 60 43 60 72c0 40 -31 60 -102 60h-127v41h127c96 0 150 -36 150 -101c0 -41 -25 -68 -57 -86c45 -18 72 -49 72 -105c0 -79 -66 -134 -172 -134h-134zM766 0v107h-238v32c77 89 118 193 130 287
h48c-18 -106 -59 -203 -115 -278h175v136h47v-136h64v-41h-64v-107h-47zM266 0v12l375 738h31v-12l-375 -738h-31z" />
    <glyph glyph-name="threesuperior" unicode="&#xb3;" horiz-adv-x="412" 
d="M57 324v41h133c78 0 125 31 125 93c0 57 -43 78 -111 78h-89v41h125c43 22 60 43 60 72c0 40 -31 60 -102 60h-128v41h128c96 0 150 -36 150 -101c0 -41 -25 -68 -57 -86c45 -18 72 -49 72 -105c0 -79 -66 -134 -173 -134h-133z" />
    <glyph glyph-name="twosuperior" unicode="&#xb2;" horiz-adv-x="412" 
d="M57 324v51c0 60 30 112 117 147l48 20c50 20 88 50 88 92c0 61 -52 75 -112 75h-121v41h121c107 0 160 -41 160 -116c0 -68 -64 -107 -129 -132l-47 -19c-51 -19 -79 -58 -79 -108v-10h257v-41h-303z" />
    <glyph glyph-name="brokenbar" unicode="&#xa6;" horiz-adv-x="273" 
d="M117 406v407h39v-407h-39zM117 -188v407h39v-407h-39z" />
    <glyph glyph-name="minus" unicode="&#x2212;" 
d="M94 348v39h437v-39h-437z" />
    <glyph glyph-name="multiply" unicode="&#xd7;" 
d="M172 198l-28 29l140 140l-140 141l28 28l141 -140l140 140l28 -28l-140 -141l140 -140l-28 -29l-140 141z" />
    <glyph glyph-name="exclam" unicode="!" horiz-adv-x="273" 
d="M121 219l-12 531h59l-12 -531h-35zM109 0v94h55v-94h-55z" />
    <glyph glyph-name="quotedbl" unicode="&#x22;" horiz-adv-x="445" 
d="M273 547l-7 203h54l-7 -203h-40zM102 547l-8 203h54l-7 -203h-39z" />
    <glyph glyph-name="numbersign" unicode="#" 
d="M176 0v191h-145v39h145v290h-145v39h145v191h39v-191h195v191h39v-191h145v-39h-145v-290h145v-39h-145v-191h-39v191h-195v-191h-39zM215 230h195v290h-195v-290z" />
    <glyph glyph-name="dollar" unicode="$" 
d="M309 757v110h50v-109c50 -2 117 -13 157 -28v-46h-8c-35 11 -110 27 -160 27h-16c-105 0 -180 -43 -180 -148c0 -75 46 -113 106 -129l109 -32c102 -29 168 -82 168 -203c0 -130 -90 -204 -219 -207v-117h-50v117c-51 2 -125 13 -176 31v51h8c39 -15 129 -35 179 -35h36
c101 0 171 59 171 160c0 82 -39 128 -109 149l-109 31c-102 29 -164 74 -164 184c0 124 87 186 207 194z" />
    <glyph glyph-name="percent" unicode="%" horiz-adv-x="937" 
d="M243 320c-111 0 -167 73 -167 217c0 145 54 218 167 218c110 0 166 -76 166 -218c0 -144 -56 -217 -166 -217zM695 -4c-111 0 -167 72 -167 217c0 144 54 218 167 218c110 0 166 -77 166 -218c0 -145 -56 -217 -166 -217zM695 36c76 0 117 49 117 177s-41 177 -117 177
s-119 -49 -119 -177c0 -121 43 -177 119 -177zM243 360c75 0 117 49 117 177s-42 177 -117 177c-76 0 -119 -49 -119 -177c0 -121 43 -177 119 -177zM266 0v12l375 738h31v-12l-375 -738h-31z" />
    <glyph glyph-name="ampersand" unicode="&#x26;" horiz-adv-x="656" 
d="M324 -8c-144 0 -230 90 -230 219c0 78 43 148 113 184c-55 27 -90 93 -90 160c0 117 106 203 223 203h8c58 0 121 -12 160 -31v-47h-8c-39 19 -94 31 -152 31h-8c-86 0 -172 -55 -172 -156c0 -67 47 -133 109 -133h332v-47h-89v-344c-47 -19 -118 -39 -196 -39zM324 39
c59 0 106 8 145 24v312h-172c-90 0 -152 -74 -152 -164c0 -109 74 -172 179 -172z" />
    <glyph glyph-name="quotesingle" unicode="'" horiz-adv-x="242" 
d="M102 547l-8 203h54l-7 -203h-39z" />
    <glyph glyph-name="parenleft" unicode="(" horiz-adv-x="297" 
d="M227 -125c-114 82 -180 237 -180 422v31c0 185 66 340 180 422h23v-16c-125 -109 -156 -257 -156 -406v-31c0 -149 31 -297 156 -406v-16h-23z" />
    <glyph glyph-name="parenright" unicode=")" horiz-adv-x="297" 
d="M70 -125h-23v16c125 109 156 257 156 406v31c0 149 -31 297 -156 406v16h23c114 -82 180 -237 180 -422v-31c0 -185 -66 -340 -180 -422z" />
    <glyph glyph-name="asterisk" unicode="*" horiz-adv-x="500" 
d="M227 502l-145 -83l-23 41l144 83l-144 83l23 41l145 -83v166h46v-166l145 83l23 -41l-144 -83l144 -83l-23 -41l-145 83v-166h-46v166z" />
    <glyph glyph-name="plus" unicode="+" 
d="M293 148v200h-199v39h199v199h39v-199h199v-39h-199v-200h-39z" />
    <glyph glyph-name="comma" unicode="," horiz-adv-x="273" 
d="M51 -125l58 219h55v-47l-82 -172h-31z" />
    <glyph glyph-name="hyphen" unicode="-" horiz-adv-x="406" 
d="M62 348v39h282v-39h-282z" />
    <glyph glyph-name="period" unicode="." horiz-adv-x="273" 
d="M109 0v94h55v-94h-55z" />
    <glyph glyph-name="slash" unicode="/" horiz-adv-x="461" 
d="M31 -125v16l364 859h35v-16l-364 -859h-35z" />
    <glyph glyph-name="zero" unicode="0" 
d="M313 -8c-165 0 -247 129 -247 383s79 383 247 383c164 0 246 -133 246 -383c0 -254 -82 -383 -246 -383zM313 39c125 0 195 92 195 336s-70 336 -195 336s-196 -92 -196 -336c0 -232 71 -336 196 -336z" />
    <glyph glyph-name="one" unicode="1" 
d="M328 0v691l-203 -89h-8v46l235 102h27v-750h-51z" />
    <glyph glyph-name="two" unicode="2" 
d="M94 0v78c0 106 44 197 172 258l74 35c85 40 144 98 144 180c0 125 -87 152 -183 152h-176v47h176c156 0 234 -70 234 -199c0 -113 -96 -181 -191 -227l-74 -35c-87 -41 -129 -113 -129 -211v-31h398v-47h-445z" />
    <glyph glyph-name="three" unicode="3" 
d="M94 0v47h195c125 0 203 62 203 183c0 114 -70 157 -183 157h-125v47h183c74 43 102 87 102 144c0 82 -51 125 -168 125h-188v47h188c140 0 219 -61 219 -172c0 -78 -51 -129 -106 -160c78 -27 129 -82 129 -188c0 -136 -98 -230 -254 -230h-195z" />
    <glyph glyph-name="four" unicode="4" 
d="M418 0v195h-367v39c117 161 179 348 199 516h51c-28 -191 -94 -367 -192 -508h309v250h51v-250h97v-47h-97v-195h-51z" />
    <glyph glyph-name="five" unicode="5" 
d="M98 0v47h175c137 0 204 73 204 199c0 122 -82 168 -200 168h-164v336h395v-47h-344v-242h113c175 0 250 -90 250 -215c0 -117 -70 -246 -254 -246h-175z" />
    <glyph glyph-name="six" unicode="6" 
d="M313 -8c-149 0 -219 86 -219 238v243c0 140 90 277 297 277h109v-47h-117c-156 0 -238 -90 -238 -250v-56c40 28 107 64 179 64c141 0 219 -78 219 -227c0 -121 -66 -242 -230 -242zM313 39c101 0 179 51 179 195c0 129 -62 180 -168 180c-72 0 -136 -33 -179 -63v-124
c0 -133 62 -188 168 -188z" />
    <glyph glyph-name="seven" unicode="7" 
d="M234 0v47c0 273 157 527 266 656h-437v47h500v-34c-141 -166 -278 -392 -278 -650v-66h-51z" />
    <glyph glyph-name="eight" unicode="8" 
d="M293 -8c-121 0 -211 59 -211 207c0 82 42 131 102 168l53 34l-3 1c-68 29 -129 75 -129 172c0 137 106 184 200 184h27c98 0 191 -47 191 -180c0 -88 -35 -119 -97 -164l-40 -28l16 -7c79 -34 137 -82 137 -180c0 -136 -98 -207 -215 -207h-31zM345 404l34 26
c55 41 94 73 94 148c0 102 -63 133 -149 133h-11c-90 0 -157 -31 -157 -137c0 -66 37 -104 94 -129zM301 39h15c94 0 172 35 172 160c0 69 -44 112 -101 137l-109 48l-48 -32c-40 -27 -97 -63 -97 -153c0 -125 74 -160 168 -160z" />
    <glyph glyph-name="nine" unicode="9" 
d="M133 0v47h113c144 0 234 64 234 230v73c-40 -24 -107 -53 -175 -53c-141 0 -215 84 -215 226c0 126 66 235 223 235c144 0 218 -82 218 -235v-246c0 -140 -74 -277 -281 -277h-117zM305 344c72 0 133 25 175 52v131c0 131 -66 184 -167 184c-98 0 -172 -41 -172 -188
c0 -140 74 -179 164 -179z" />
    <glyph glyph-name="colon" unicode=":" horiz-adv-x="273" 
d="M109 453v94h55v-94h-55zM109 0v94h55v-94h-55z" />
    <glyph glyph-name="semicolon" unicode=";" horiz-adv-x="273" 
d="M109 453v94h55v-94h-55zM51 -125l58 219h55v-47l-82 -172h-31z" />
    <glyph glyph-name="less" unicode="&#x3c;" 
d="M523 125l-429 223v39l429 222h8v-43l-383 -199l383 -199v-43h-8z" />
    <glyph glyph-name="equal" unicode="=" 
d="M94 457v39h437v-39h-437zM94 238v39h437v-39h-437z" />
    <glyph glyph-name="greater" unicode="&#x3e;" 
d="M94 125v43l383 199l-383 199v43h8l429 -222v-39l-429 -223h-8z" />
    <glyph glyph-name="question" unicode="?" horiz-adv-x="434" 
d="M145 188v93l105 125c57 68 86 121 86 172c0 82 -39 129 -137 129h-136v43h121c140 0 199 -59 199 -172c0 -51 -21 -108 -86 -183l-106 -122v-85h-46zM141 0v94h54v-94h-54z" />
    <glyph glyph-name="at" unicode="@" horiz-adv-x="930" 
d="M477 -102c-211 0 -414 125 -414 430c0 289 203 430 421 430c227 0 383 -129 383 -360c0 -140 -94 -242 -234 -242h-172c-94 0 -164 63 -164 172c0 117 86 188 180 188h132v-317h24c97 0 183 55 183 199c0 196 -121 317 -332 317c-195 0 -371 -129 -371 -387
c0 -238 149 -387 360 -387c58 0 131 10 179 24h8v-43c-47 -16 -124 -24 -183 -24zM457 199h102v274h-90c-71 0 -121 -59 -121 -145c0 -78 39 -129 109 -129z" />
    <glyph glyph-name="A" unicode="A" 
d="M31 0v8c32 133 55 207 86 312c47 160 133 371 164 430h63c31 -59 117 -270 164 -430c31 -105 55 -179 86 -312v-8h-55c-22 91 -37 151 -57 219h-340c-19 -69 -35 -127 -56 -219h-55zM172 320c-6 -20 -11 -37 -16 -54h313c-5 17 -11 34 -16 54c-39 133 -98 285 -140 383
c-43 -98 -102 -250 -141 -383z" />
    <glyph glyph-name="B" unicode="B" horiz-adv-x="609" 
d="M94 0v750h246c121 0 183 -66 183 -187c0 -83 -27 -137 -97 -176c78 -35 113 -90 113 -180c0 -129 -66 -207 -195 -207h-250zM145 406h210c83 0 118 82 118 157c0 89 -35 140 -125 140h-203v-297zM145 47h207c101 0 136 58 136 160c0 78 -47 152 -133 152h-210v-312z" />
    <glyph glyph-name="C" unicode="C" horiz-adv-x="609" 
d="M359 -8c-207 0 -304 129 -304 336v94c0 207 113 336 320 336c70 0 145 -16 180 -35v-168h-47v136c-31 12 -94 20 -133 20c-184 0 -270 -106 -270 -289v-94c0 -180 75 -289 254 -289h32c54 0 121 20 148 31h8v-43c-24 -11 -94 -35 -156 -35h-32z" />
    <glyph glyph-name="D" unicode="D" horiz-adv-x="680" 
d="M94 0v750h211c211 0 312 -102 312 -312v-110c0 -199 -97 -328 -297 -328h-226zM145 47h183c172 0 238 109 238 281v110c0 175 -78 265 -253 265h-168v-656z" />
    <glyph glyph-name="E" unicode="E" horiz-adv-x="555" 
d="M270 0c-118 0 -176 55 -176 172v578h398v-47h-347v-281h316v-47h-316v-207c0 -82 39 -121 121 -121h226v-47h-222z" />
    <glyph glyph-name="F" unicode="F" horiz-adv-x="523" 
d="M94 0v578c0 117 58 172 176 172h207v-47h-211c-82 0 -121 -39 -121 -121v-160h316v-47h-316v-375h-51z" />
    <glyph glyph-name="G" unicode="G" horiz-adv-x="660" 
d="M375 0c-207 0 -320 121 -320 328v94c0 203 125 336 328 336c86 0 164 -20 199 -35v-43h-8c-47 15 -121 31 -191 31c-176 0 -278 -109 -278 -289v-94c0 -176 94 -281 270 -281h31c47 0 98 12 125 23v278h-172v47h223v-356c-35 -16 -117 -39 -176 -39h-31z" />
    <glyph glyph-name="H" unicode="H" horiz-adv-x="687" 
d="M94 0v750h51v-328h398v328h51v-750h-51v375h-398v-375h-51z" />
    <glyph glyph-name="I" unicode="I" horiz-adv-x="238" 
d="M94 0v750h51v-750h-51z" />
    <glyph glyph-name="J" unicode="J" horiz-adv-x="426" 
d="M47 0v47h98c97 0 136 70 136 168v488h-203v47h254v-531c0 -129 -62 -219 -191 -219h-94z" />
    <glyph glyph-name="K" unicode="K" horiz-adv-x="562" 
d="M94 0v750h51v-336h46l297 336h51v-8l-309 -347l317 -387v-8h-59l-300 367h-43v-367h-51z" />
    <glyph glyph-name="L" unicode="L" horiz-adv-x="492" 
d="M270 0c-118 0 -176 55 -176 172v578h51v-582c0 -82 39 -121 121 -121h211v-47h-207z" />
    <glyph glyph-name="M" unicode="M" horiz-adv-x="789" 
d="M94 0v750h35l266 -383l265 383h35v-750h-50v645l-243 -348h-15l-242 348v-645h-51z" />
    <glyph glyph-name="N" unicode="N" horiz-adv-x="668" 
d="M94 0v750h39l410 -641v641h51v-750h-39l-410 641v-641h-51z" />
    <glyph glyph-name="O" unicode="O" horiz-adv-x="687" 
d="M344 -8c-207 0 -289 160 -289 367v32c0 207 82 367 289 367s289 -160 289 -367v-32c0 -207 -82 -367 -289 -367zM344 39c179 0 238 141 238 320v32c0 179 -59 320 -238 320c-180 0 -239 -141 -239 -320v-32c0 -179 59 -320 239 -320z" />
    <glyph glyph-name="P" unicode="P" horiz-adv-x="578" 
d="M94 0v750h215c152 0 222 -78 222 -230c0 -149 -78 -247 -226 -247h-160v-273h-51zM145 320h168c121 0 167 78 167 200c0 113 -42 183 -156 183h-179v-383z" />
    <glyph glyph-name="Q" unicode="Q" horiz-adv-x="687" 
d="M453 -188c-86 0 -133 40 -133 125v56c-190 12 -265 167 -265 366v32c0 207 82 367 289 367s289 -160 289 -367v-32c0 -198 -75 -353 -262 -366v-56c0 -54 27 -78 82 -78c39 0 82 12 102 20h8v-47c-32 -12 -75 -20 -110 -20zM344 39c179 0 238 141 238 320v32
c0 179 -59 320 -238 320c-180 0 -239 -141 -239 -320v-32c0 -179 59 -320 239 -320z" />
    <glyph glyph-name="R" unicode="R" horiz-adv-x="609" 
d="M94 0v750h234c145 0 203 -70 203 -215c0 -97 -54 -176 -144 -203c75 -71 155 -260 175 -324v-8h-54c-16 63 -102 249 -172 312h-191v-312h-51zM145 359h171c102 0 164 75 164 176c0 110 -35 168 -144 168h-191v-344z" />
    <glyph glyph-name="S" unicode="S" horiz-adv-x="551" 
d="M238 -8c-50 0 -133 12 -187 31v51h8c39 -15 129 -35 179 -35h35c102 0 172 59 172 160c0 82 -39 128 -109 149l-109 31c-102 29 -164 74 -164 184c0 132 101 195 234 195h12c50 0 125 -12 168 -28v-46h-8c-35 11 -110 27 -160 27h-16c-105 0 -180 -43 -180 -148
c0 -75 46 -113 106 -129l109 -32c102 -29 168 -82 168 -203c0 -133 -94 -207 -226 -207h-32z" />
    <glyph glyph-name="T" unicode="T" horiz-adv-x="566" 
d="M266 0v703h-250v47h535v-47h-235v-703h-50z" />
    <glyph glyph-name="U" unicode="U" horiz-adv-x="672" 
d="M336 -8c-176 0 -250 82 -250 258v500h51v-516c0 -129 70 -195 199 -195s199 66 199 195v516h51v-500c0 -172 -78 -258 -250 -258z" />
    <glyph glyph-name="V" unicode="V" horiz-adv-x="594" 
d="M266 0c-106 176 -200 504 -235 742v8h51c50 -276 106 -480 215 -703c105 215 168 426 215 703h50v-8c-36 -238 -136 -570 -238 -742h-58z" />
    <glyph glyph-name="W" unicode="W" horiz-adv-x="875" 
d="M219 0c-78 188 -160 484 -188 742v8h51c39 -270 90 -508 168 -703c78 191 137 433 164 703h47c31 -270 82 -512 160 -703c78 195 133 433 172 703h51v-8c-35 -258 -110 -554 -192 -742h-62c-59 125 -117 344 -152 539c-36 -195 -94 -414 -157 -539h-62z" />
    <glyph glyph-name="X" unicode="X" horiz-adv-x="562" 
d="M20 0v8l235 373l-232 361v8h55l207 -322l203 322h55v-8l-228 -361l240 -373v-8h-55l-215 334l-211 -334h-54z" />
    <glyph glyph-name="Y" unicode="Y" horiz-adv-x="562" 
d="M258 0v309l-235 433v8h51l211 -387l207 387h51v-8l-234 -433v-309h-51z" />
    <glyph glyph-name="Z" unicode="Z" horiz-adv-x="574" 
d="M47 0v39c109 145 336 496 402 664h-390v47h449v-39c-94 -231 -323 -565 -395 -664h414v-47h-480z" />
    <glyph glyph-name="bracketleft" unicode="[" horiz-adv-x="289" 
d="M94 -125v875h148v-43h-101v-789h101v-43h-148z" />
    <glyph glyph-name="backslash" unicode="\" horiz-adv-x="461" 
d="M430 -125h-35l-364 859v16h35l364 -859v-16z" />
    <glyph glyph-name="bracketright" unicode="]" horiz-adv-x="289" 
d="M195 -125h-148v43h101v789h-101v43h148v-875z" />
    <glyph glyph-name="asciicircum" unicode="^" 
d="M70 109v8l223 430h39l223 -430v-8h-43l-199 383l-200 -383h-43z" />
    <glyph glyph-name="underscore" unicode="_" 
d="M31 -39v39h563v-39h-563z" />
    <glyph glyph-name="grave" unicode="`" horiz-adv-x="160" 
d="M137 625l-137 141v15h62l98 -140v-16h-23z" />
    <glyph glyph-name="a" unicode="a" horiz-adv-x="551" 
d="M199 -8c-94 0 -140 74 -140 168v133c0 156 109 254 265 254h133v-547h-47v121l-35 -35c-43 -43 -94 -94 -176 -94zM355 121l55 55v328h-90c-132 0 -215 -78 -215 -207v-137c0 -70 32 -125 102 -125c59 0 106 43 148 86z" />
    <glyph glyph-name="b" unicode="b" horiz-adv-x="551" 
d="M94 0v750h47v-324l35 35c43 43 94 94 176 94c93 0 140 -75 140 -168v-133c0 -156 -109 -254 -265 -254h-133zM195 426l-54 -55v-328h89c133 0 215 78 215 207v137c0 70 -31 125 -101 125c-59 0 -106 -43 -149 -86z" />
    <glyph glyph-name="c" unicode="c" horiz-adv-x="469" 
d="M262 -8c-129 0 -203 74 -203 203v149c0 129 82 211 211 211c50 0 113 -12 148 -35v-114h-47v86c-27 12 -58 20 -101 20c-106 0 -165 -63 -165 -168v-149c0 -101 55 -160 157 -160c51 0 117 20 148 39h8v-39c-31 -23 -102 -43 -156 -43z" />
    <glyph glyph-name="d" unicode="d" horiz-adv-x="551" 
d="M199 -8c-94 0 -140 74 -140 168v133c0 156 109 254 265 254h86v203h47v-750h-47v121l-35 -35c-43 -43 -94 -94 -176 -94zM355 121l55 55v328h-90c-132 0 -215 -78 -215 -207v-137c0 -70 32 -125 102 -125c59 0 106 43 148 86z" />
    <glyph glyph-name="e" unicode="e" horiz-adv-x="500" 
d="M262 -8c-129 0 -203 74 -203 203v149c0 129 86 211 211 211c101 0 179 -51 179 -153c0 -97 -70 -144 -168 -144h-176v-63c0 -101 55 -160 157 -160c54 0 101 16 148 39h8v-39c-35 -23 -94 -43 -156 -43zM105 344v-43h180c74 0 117 27 117 101c0 75 -58 110 -132 110
c-106 0 -165 -63 -165 -168z" />
    <glyph glyph-name="f" unicode="f" horiz-adv-x="336" 
d="M133 0v504h-102v43h102v39c0 105 58 164 164 164h55v-43h-55c-82 0 -117 -39 -117 -121v-39h156v-43h-156v-504h-47z" />
    <glyph glyph-name="g" unicode="g" horiz-adv-x="551" 
d="M90 -188v43h113c141 0 207 82 207 223v16l-19 -12c-44 -26 -102 -51 -161 -51c-113 0 -171 74 -171 188v74c0 164 117 254 265 254h133v-465c0 -172 -86 -270 -258 -270h-109zM391 125l19 12v367h-90c-129 0 -215 -74 -215 -207v-78c0 -90 40 -145 129 -145
c53 0 117 27 157 51z" />
    <glyph glyph-name="h" unicode="h" horiz-adv-x="578" 
d="M438 0v391c0 70 -28 121 -98 121c-59 0 -117 -59 -160 -102l-39 -39v-371h-47v750h47v-324l39 39c27 27 90 90 164 90c101 0 140 -63 140 -164v-391h-46z" />
    <glyph glyph-name="i" unicode="i" horiz-adv-x="258" 
d="M164 672h-47v78h47v-78zM117 0v504h-101v43h148v-547h-47z" />
    <glyph glyph-name="j" unicode="j" horiz-adv-x="266" 
d="M172 672h-47v78h47v-78zM-55 -188v43h24c117 0 156 75 156 192v457h-102v43h149v-484c0 -153 -51 -251 -203 -251h-24z" />
    <glyph glyph-name="k" unicode="k" horiz-adv-x="473" 
d="M94 0v750h47v-430h62l188 227h47v-8l-200 -238l211 -293v-8h-51l-199 277h-58v-277h-47z" />
    <glyph glyph-name="l" unicode="l" horiz-adv-x="242" 
d="M102 0v707h-102v43h148v-750h-46z" />
    <glyph glyph-name="m" unicode="m" horiz-adv-x="922" 
d="M94 0v547h47v-121l39 39c27 27 90 90 164 90c88 0 130 -49 138 -129h2l39 39c28 27 90 90 165 90c101 0 140 -63 140 -164v-391h-47v391c0 70 -27 121 -97 121c-59 0 -118 -59 -161 -102l-39 -39v-371h-46v391c0 70 -28 121 -98 121c-59 0 -117 -59 -160 -102l-39 -39
v-371h-47z" />
    <glyph glyph-name="n" unicode="n" horiz-adv-x="578" 
d="M94 0v547h47v-121l39 39c27 27 90 90 164 90c101 0 140 -63 140 -164v-391h-47v391c0 70 -27 121 -97 121c-59 0 -117 -59 -160 -102l-39 -39v-371h-47z" />
    <glyph glyph-name="o" unicode="o" horiz-adv-x="555" 
d="M277 -8c-160 0 -222 125 -222 285c0 161 66 278 222 278c161 0 223 -117 223 -278c0 -160 -59 -285 -223 -285zM277 35c133 0 176 110 176 242c0 133 -43 235 -176 235c-132 0 -175 -102 -175 -235c0 -132 43 -242 175 -242z" />
    <glyph glyph-name="p" unicode="p" horiz-adv-x="551" 
d="M94 -188v735h47v-121l35 35c43 43 94 94 176 94c93 0 140 -75 140 -168v-133c0 -156 -109 -254 -265 -254h-86v-188h-47zM195 426l-54 -55v-328h89c133 0 215 78 215 207v137c0 70 -31 125 -101 125c-59 0 -106 -43 -149 -86z" />
    <glyph glyph-name="q" unicode="q" horiz-adv-x="551" 
d="M410 -188v309l-35 -35c-43 -43 -94 -94 -176 -94c-94 0 -140 74 -140 168v133c0 156 109 254 265 254h133v-735h-47zM355 121l55 55v328h-90c-132 0 -215 -78 -215 -207v-137c0 -70 32 -125 102 -125c59 0 106 43 148 86z" />
    <glyph glyph-name="r" unicode="r" horiz-adv-x="355" 
d="M94 0v547h47v-113l43 50c27 33 66 63 121 63h35v-47h-35c-51 0 -90 -39 -117 -70l-47 -55v-375h-47z" />
    <glyph glyph-name="s" unicode="s" horiz-adv-x="484" 
d="M223 -8c-35 0 -102 4 -153 20v47h8c43 -16 98 -24 145 -24c86 0 152 35 152 121c0 55 -25 80 -94 98l-78 19c-76 20 -133 43 -133 137c0 102 98 145 200 145c31 0 82 -4 128 -16v-43h-7c-32 8 -85 16 -121 16c-79 0 -153 -24 -153 -102c0 -55 30 -76 86 -90l78 -19
c69 -18 141 -47 141 -145c0 -109 -86 -164 -199 -164z" />
    <glyph glyph-name="t" unicode="t" horiz-adv-x="383" 
d="M352 0h-55c-125 0 -164 63 -164 188v316h-102v43h102v125h47v-125h156v-43h-156v-332c0 -90 35 -129 125 -129h47v-43z" />
    <glyph glyph-name="u" unicode="u" horiz-adv-x="574" 
d="M230 -8c-101 0 -140 63 -140 164v391h47v-391c0 -70 27 -121 97 -121c59 0 118 59 161 102l39 39v371h46v-547h-46v121l-39 -39c-28 -27 -90 -90 -165 -90z" />
    <glyph glyph-name="v" unicode="v" horiz-adv-x="484" 
d="M219 0c-59 59 -164 195 -164 391v156h47v-156c0 -180 89 -301 140 -352c51 51 141 172 141 352v156h47v-156c0 -196 -110 -332 -168 -391h-43z" />
    <glyph glyph-name="w" unicode="w" horiz-adv-x="727" 
d="M191 0c-54 59 -136 203 -136 391v156h47v-156c0 -157 70 -305 117 -352c35 47 121 180 121 344v164h47v-164c0 -164 86 -297 121 -344c47 47 117 195 117 352v156h47v-156c0 -188 -86 -332 -141 -391h-43c-39 39 -105 156 -125 246c-19 -90 -86 -207 -125 -246h-47z" />
    <glyph glyph-name="x" unicode="x" horiz-adv-x="469" 
d="M23 0v8l185 268l-177 263v8h51l154 -230l159 230h50v-8l-181 -263l181 -268v-8h-50l-159 235l-162 -235h-51z" />
    <glyph glyph-name="y" unicode="y" horiz-adv-x="574" 
d="M137 -188v43h101c149 0 196 75 196 223v47l-12 -8c-33 -22 -103 -54 -168 -54c-109 0 -164 70 -164 179v305h47v-305c0 -90 35 -137 125 -137c58 0 127 33 160 55l12 8v379h46v-461c0 -176 -66 -274 -242 -274h-101z" />
    <glyph glyph-name="z" unicode="z" horiz-adv-x="500" 
d="M55 0v35c113 141 261 356 324 469h-309v43h368v-35c-51 -98 -239 -367 -321 -469h328v-43h-390z" />
    <glyph glyph-name="braceleft" unicode="{" horiz-adv-x="469" 
d="M359 -125c-132 0 -171 55 -171 172v125c0 70 -47 113 -157 121v39c110 8 157 47 157 121v125c0 117 39 172 171 172h32v-43h-63c-70 0 -94 -43 -94 -121v-125c0 -98 -54 -133 -125 -148c71 -16 125 -47 125 -149v-125c0 -78 24 -121 94 -121h63v-43h-32z" />
    <glyph glyph-name="bar" unicode="|" horiz-adv-x="273" 
d="M117 -188v1001h39v-1001h-39z" />
    <glyph glyph-name="braceright" unicode="}" horiz-adv-x="469" 
d="M109 -125h-31v43h63c70 0 93 43 93 121v125c0 102 55 133 125 149c-70 15 -125 50 -125 148v125c0 78 -23 121 -93 121h-63v43h31c133 0 172 -55 172 -172v-125c0 -74 47 -113 157 -121v-39c-110 -8 -157 -51 -157 -121v-125c0 -117 -39 -172 -172 -172z" />
    <glyph glyph-name="asciitilde" unicode="~" 
d="M94 281v35c19 36 62 71 117 71c70 0 152 -67 207 -67s82 24 105 67h8v-35c-19 -36 -62 -71 -117 -71c-70 0 -152 67 -207 67c-47 0 -78 -24 -105 -67h-8z" />
    <glyph glyph-name="Adieresis" unicode="&#xc4;" 
d="M31 0v8c32 133 55 207 86 312c47 160 133 371 164 430h63c31 -59 117 -270 164 -430c31 -105 55 -179 86 -312v-8h-55c-22 91 -37 151 -57 219h-340c-19 -69 -35 -127 -56 -219h-55zM172 320c-6 -20 -11 -37 -16 -54h313c-5 17 -11 34 -16 54c-39 133 -98 285 -140 383
c-43 -98 -102 -250 -141 -383zM406 828v94h55v-94h-55zM164 828v94h55v-94h-55z" />
    <glyph glyph-name="Aring" unicode="&#xc5;" 
d="M31 0v8c32 133 55 207 86 312c47 160 133 371 164 430h63c31 -59 117 -270 164 -430c31 -105 55 -179 86 -312v-8h-55c-22 91 -37 151 -57 219h-340c-19 -69 -35 -127 -56 -219h-55zM172 320c-6 -20 -11 -37 -16 -54h313c-5 17 -11 34 -16 54c-39 133 -98 285 -140 383
c-43 -98 -102 -250 -141 -383zM312 828c-74 0 -113 47 -113 102c0 54 39 101 113 101c75 0 114 -47 114 -101c0 -55 -39 -102 -114 -102zM312 852c55 0 83 31 83 78s-28 78 -83 78c-54 0 -82 -31 -82 -78s28 -78 82 -78z" />
    <glyph glyph-name="Ccedilla" unicode="&#xc7;" horiz-adv-x="609" 
d="M359 -8c-207 0 -304 129 -304 336v94c0 207 113 336 320 336c70 0 145 -16 180 -35v-168h-47v136c-31 12 -94 20 -133 20c-184 0 -270 -106 -270 -289v-94c0 -180 75 -289 254 -289h32c54 0 121 20 148 31h8v-43c-24 -11 -94 -35 -156 -35h-32zM213 -188v40h109
c43 0 55 23 55 50c0 24 -27 51 -51 63v12h24c35 -16 62 -51 62 -82c0 -51 -39 -83 -94 -83h-105z" />
    <glyph glyph-name="Eacute" unicode="&#xc9;" horiz-adv-x="555" 
d="M270 0c-118 0 -176 55 -176 172v578h398v-47h-347v-281h316v-47h-316v-207c0 -82 39 -121 121 -121h226v-47h-222zM217 828v16l97 140h63v-15l-137 -141h-23z" />
    <glyph glyph-name="Ntilde" unicode="&#xd1;" horiz-adv-x="668" 
d="M94 0v750h39l410 -641v641h51v-750h-39l-410 641v-641h-51zM162 828v39c16 28 51 78 98 78c54 0 113 -78 148 -78c39 0 67 43 90 78h8v-39c-16 -27 -51 -78 -98 -78c-51 0 -113 78 -148 78c-39 0 -67 -43 -90 -78h-8z" />
    <glyph glyph-name="Odieresis" unicode="&#xd6;" horiz-adv-x="687" 
d="M344 -8c-207 0 -289 160 -289 367v32c0 207 82 367 289 367s289 -160 289 -367v-32c0 -207 -82 -367 -289 -367zM344 39c179 0 238 141 238 320v32c0 179 -59 320 -238 320c-180 0 -239 -141 -239 -320v-32c0 -179 59 -320 239 -320zM437 828v94h55v-94h-55zM195 828v94
h55v-94h-55z" />
    <glyph glyph-name="Udieresis" unicode="&#xdc;" horiz-adv-x="672" 
d="M336 -8c-176 0 -250 82 -250 258v500h51v-516c0 -129 70 -195 199 -195s199 66 199 195v516h51v-500c0 -172 -78 -258 -250 -258zM430 828v94h54v-94h-54zM187 828v94h55v-94h-55z" />
    <glyph glyph-name="aacute" unicode="&#xe1;" horiz-adv-x="551" 
d="M199 -8c-94 0 -140 74 -140 168v133c0 156 109 254 265 254h133v-547h-47v121l-35 -35c-43 -43 -94 -94 -176 -94zM355 121l55 55v328h-90c-132 0 -215 -78 -215 -207v-137c0 -70 32 -125 102 -125c59 0 106 43 148 86zM203 625v16l98 140h62v-15l-136 -141h-24z" />
    <glyph glyph-name="agrave" unicode="&#xe0;" horiz-adv-x="551" 
d="M199 -8c-94 0 -140 74 -140 168v133c0 156 109 254 265 254h133v-547h-47v121l-35 -35c-43 -43 -94 -94 -176 -94zM355 121l55 55v328h-90c-132 0 -215 -78 -215 -207v-137c0 -70 32 -125 102 -125c59 0 106 43 148 86zM340 625l-137 141v15h63l97 -140v-16h-23z" />
    <glyph glyph-name="acircumflex" unicode="&#xe2;" horiz-adv-x="551" 
d="M199 -8c-94 0 -140 74 -140 168v133c0 156 109 254 265 254h133v-547h-47v121l-35 -35c-43 -43 -94 -94 -176 -94zM355 121l55 55v328h-90c-132 0 -215 -78 -215 -207v-137c0 -70 32 -125 102 -125c59 0 106 43 148 86zM127 625v16l125 140h62l125 -142v-14h-31l-125 129
l-125 -129h-31z" />
    <glyph glyph-name="adieresis" unicode="&#xe4;" horiz-adv-x="551" 
d="M199 -8c-94 0 -140 74 -140 168v133c0 156 109 254 265 254h133v-547h-47v121l-35 -35c-43 -43 -94 -94 -176 -94zM355 121l55 55v328h-90c-132 0 -215 -78 -215 -207v-137c0 -70 32 -125 102 -125c59 0 106 43 148 86zM377 625v94h55v-94h-55zM135 625v94h54v-94h-54z
" />
    <glyph glyph-name="atilde" unicode="&#xe3;" horiz-adv-x="551" 
d="M199 -8c-94 0 -140 74 -140 168v133c0 156 109 254 265 254h133v-547h-47v121l-35 -35c-43 -43 -94 -94 -176 -94zM355 121l55 55v328h-90c-132 0 -215 -78 -215 -207v-137c0 -70 32 -125 102 -125c59 0 106 43 148 86zM111 625v39c16 27 51 78 98 78
c55 0 113 -78 148 -78c39 0 67 43 90 78h8v-39c-16 -27 -51 -78 -98 -78c-50 0 -113 78 -148 78c-39 0 -66 -43 -90 -78h-8z" />
    <glyph glyph-name="aring" unicode="&#xe5;" horiz-adv-x="551" 
d="M199 -8c-94 0 -140 74 -140 168v133c0 156 109 254 265 254h133v-547h-47v121l-35 -35c-43 -43 -94 -94 -176 -94zM355 121l55 55v328h-90c-132 0 -215 -78 -215 -207v-137c0 -70 32 -125 102 -125c59 0 106 43 148 86zM283 625c-74 0 -113 47 -113 102
c0 54 39 101 113 101s113 -47 113 -101c0 -55 -39 -102 -113 -102zM283 648c55 0 82 32 82 79c0 46 -27 78 -82 78c-54 0 -82 -32 -82 -78c0 -47 28 -79 82 -79z" />
    <glyph glyph-name="ccedilla" unicode="&#xe7;" horiz-adv-x="469" 
d="M262 -8c-129 0 -203 74 -203 203v149c0 129 82 211 211 211c50 0 113 -12 148 -35v-114h-47v86c-27 12 -58 20 -101 20c-106 0 -165 -63 -165 -168v-149c0 -101 55 -160 157 -160c51 0 117 20 148 39h8v-39c-31 -23 -102 -43 -156 -43zM127 -188v40h109c43 0 55 23 55 50
c0 24 -27 51 -51 63v12h24c35 -16 62 -51 62 -82c0 -51 -39 -83 -94 -83h-105z" />
    <glyph glyph-name="eacute" unicode="&#xe9;" horiz-adv-x="500" 
d="M262 -8c-129 0 -203 74 -203 203v149c0 129 86 211 211 211c101 0 179 -51 179 -153c0 -97 -70 -144 -168 -144h-176v-63c0 -101 55 -160 157 -160c54 0 101 16 148 39h8v-39c-35 -23 -94 -43 -156 -43zM105 344v-43h180c74 0 117 27 117 101c0 75 -58 110 -132 110
c-106 0 -165 -63 -165 -168zM174 625v16l97 140h63v-15l-137 -141h-23z" />
    <glyph glyph-name="egrave" unicode="&#xe8;" horiz-adv-x="500" 
d="M262 -8c-129 0 -203 74 -203 203v149c0 129 86 211 211 211c101 0 179 -51 179 -153c0 -97 -70 -144 -168 -144h-176v-63c0 -101 55 -160 157 -160c54 0 101 16 148 39h8v-39c-35 -23 -94 -43 -156 -43zM105 344v-43h180c74 0 117 27 117 101c0 75 -58 110 -132 110
c-106 0 -165 -63 -165 -168zM311 625l-137 141v15h62l98 -140v-16h-23z" />
    <glyph glyph-name="ecircumflex" unicode="&#xea;" horiz-adv-x="500" 
d="M262 -8c-129 0 -203 74 -203 203v149c0 129 86 211 211 211c101 0 179 -51 179 -153c0 -97 -70 -144 -168 -144h-176v-63c0 -101 55 -160 157 -160c54 0 101 16 148 39h8v-39c-35 -23 -94 -43 -156 -43zM105 344v-43h180c74 0 117 27 117 101c0 75 -58 110 -132 110
c-106 0 -165 -63 -165 -168zM98 625v16l125 140h62l125 -142v-14h-31l-125 129l-125 -129h-31z" />
    <glyph glyph-name="edieresis" unicode="&#xeb;" horiz-adv-x="500" 
d="M262 -8c-129 0 -203 74 -203 203v149c0 129 86 211 211 211c101 0 179 -51 179 -153c0 -97 -70 -144 -168 -144h-176v-63c0 -101 55 -160 157 -160c54 0 101 16 148 39h8v-39c-35 -23 -94 -43 -156 -43zM105 344v-43h180c74 0 117 27 117 101c0 75 -58 110 -132 110
c-106 0 -165 -63 -165 -168zM348 625v94h54v-94h-54zM105 625v94h55v-94h-55z" />
    <glyph glyph-name="iacute" unicode="&#xed;" horiz-adv-x="258" 
d="M117 0v504h-101v43h148v-547h-47zM49 625v16l97 140h63v-15l-137 -141h-23z" />
    <glyph glyph-name="igrave" unicode="&#xec;" horiz-adv-x="258" 
d="M117 0v504h-101v43h148v-547h-47zM178 625l-137 141v15h63l97 -140v-16h-23z" />
    <glyph glyph-name="icircumflex" unicode="&#xee;" horiz-adv-x="258" 
d="M117 0v504h-101v43h148v-547h-47zM-39 625v16l125 140h62l125 -142v-14h-31l-125 129l-125 -129h-31z" />
    <glyph glyph-name="idieresis" unicode="&#xef;" horiz-adv-x="258" 
d="M117 0v504h-101v43h148v-547h-47zM211 625v94h55v-94h-55zM-31 625v94h54v-94h-54z" />
    <glyph glyph-name="ntilde" unicode="&#xf1;" horiz-adv-x="578" 
d="M94 0v547h47v-121l39 39c27 27 90 90 164 90c101 0 140 -63 140 -164v-391h-47v391c0 70 -27 121 -97 121c-59 0 -117 -59 -160 -102l-39 -39v-371h-47zM117 625v39c16 27 51 78 98 78c55 0 113 -78 148 -78c39 0 67 43 90 78h8v-39c-16 -27 -51 -78 -98 -78
c-51 0 -113 78 -148 78c-39 0 -67 -43 -90 -78h-8z" />
    <glyph glyph-name="oacute" unicode="&#xf3;" horiz-adv-x="555" 
d="M277 -8c-160 0 -222 125 -222 285c0 161 66 278 222 278c161 0 223 -117 223 -278c0 -160 -59 -285 -223 -285zM277 35c133 0 176 110 176 242c0 133 -43 235 -176 235c-132 0 -175 -102 -175 -235c0 -132 43 -242 175 -242zM197 625v16l98 140h62v-15l-136 -141h-24z
" />
    <glyph glyph-name="ograve" unicode="&#xf2;" horiz-adv-x="555" 
d="M277 -8c-160 0 -222 125 -222 285c0 161 66 278 222 278c161 0 223 -117 223 -278c0 -160 -59 -285 -223 -285zM277 35c133 0 176 110 176 242c0 133 -43 235 -176 235c-132 0 -175 -102 -175 -235c0 -132 43 -242 175 -242zM334 625l-137 141v15h63l97 -140v-16h-23z
" />
    <glyph glyph-name="ocircumflex" unicode="&#xf4;" horiz-adv-x="555" 
d="M277 -8c-160 0 -222 125 -222 285c0 161 66 278 222 278c161 0 223 -117 223 -278c0 -160 -59 -285 -223 -285zM277 35c133 0 176 110 176 242c0 133 -43 235 -176 235c-132 0 -175 -102 -175 -235c0 -132 43 -242 175 -242zM121 625v16l125 140h63l125 -142v-14h-32
l-125 129l-125 -129h-31z" />
    <glyph glyph-name="odieresis" unicode="&#xf6;" horiz-adv-x="555" 
d="M277 -8c-160 0 -222 125 -222 285c0 161 66 278 222 278c161 0 223 -117 223 -278c0 -160 -59 -285 -223 -285zM277 35c133 0 176 110 176 242c0 133 -43 235 -176 235c-132 0 -175 -102 -175 -235c0 -132 43 -242 175 -242zM371 625v94h55v-94h-55zM129 625v94h55v-94
h-55z" />
    <glyph glyph-name="otilde" unicode="&#xf5;" horiz-adv-x="555" 
d="M277 -8c-160 0 -222 125 -222 285c0 161 66 278 222 278c161 0 223 -117 223 -278c0 -160 -59 -285 -223 -285zM277 35c133 0 176 110 176 242c0 133 -43 235 -176 235c-132 0 -175 -102 -175 -235c0 -132 43 -242 175 -242zM105 625v39c16 27 51 78 98 78
c55 0 113 -78 149 -78c39 0 66 43 89 78h8v-39c-15 -27 -51 -78 -97 -78c-51 0 -114 78 -149 78c-39 0 -66 -43 -90 -78h-8z" />
    <glyph glyph-name="uacute" unicode="&#xfa;" horiz-adv-x="574" 
d="M230 -8c-101 0 -140 63 -140 164v391h47v-391c0 -70 27 -121 97 -121c59 0 118 59 161 102l39 39v371h46v-547h-46v121l-39 -39c-28 -27 -90 -90 -165 -90zM207 625v16l98 140h62v-15l-137 -141h-23z" />
    <glyph glyph-name="ugrave" unicode="&#xf9;" horiz-adv-x="574" 
d="M230 -8c-101 0 -140 63 -140 164v391h47v-391c0 -70 27 -121 97 -121c59 0 118 59 161 102l39 39v371h46v-547h-46v121l-39 -39c-28 -27 -90 -90 -165 -90zM344 625l-137 141v15h63l97 -140v-16h-23z" />
    <glyph glyph-name="ucircumflex" unicode="&#xfb;" horiz-adv-x="574" 
d="M230 -8c-101 0 -140 63 -140 164v391h47v-391c0 -70 27 -121 97 -121c59 0 118 59 161 102l39 39v371h46v-547h-46v121l-39 -39c-28 -27 -90 -90 -165 -90zM131 625v16l125 140h62l125 -142v-14h-31l-125 129l-125 -129h-31z" />
    <glyph glyph-name="udieresis" unicode="&#xfc;" horiz-adv-x="574" 
d="M230 -8c-101 0 -140 63 -140 164v391h47v-391c0 -70 27 -121 97 -121c59 0 118 59 161 102l39 39v371h46v-547h-46v121l-39 -39c-28 -27 -90 -90 -165 -90zM381 625v94h55v-94h-55zM139 625v94h54v-94h-54z" />
    <glyph glyph-name="dagger" unicode="&#x2020;" horiz-adv-x="477" 
d="M215 -125v629h-153v43h153v203h47v-203h152v-43h-152v-629h-47z" />
    <glyph glyph-name="degree" unicode="&#xb0;" horiz-adv-x="412" 
d="M207 320c-111 0 -167 73 -167 217c0 145 54 218 167 218c109 0 166 -76 166 -218c0 -144 -57 -217 -166 -217zM207 360c75 0 117 49 117 177s-42 177 -117 177c-76 0 -119 -49 -119 -177c0 -121 43 -177 119 -177z" />
    <glyph glyph-name="cent" unicode="&#xa2;" 
d="M355 758v109h51v-110c58 -3 109 -13 145 -27v-46h-8c-35 11 -86 27 -168 27c-184 0 -270 -106 -270 -289v-94c0 -180 75 -289 254 -289h32c54 0 121 20 148 31h8v-43c-24 -11 -91 -34 -152 -35v-117h-51v117c-197 7 -289 134 -289 336v94c0 200 106 327 300 336z" />
    <glyph glyph-name="sterling" unicode="&#xa3;" 
d="M125 47c63 43 78 121 78 183v145h-109v47h109v94c0 148 78 234 227 234h117v-47h-117c-137 0 -176 -70 -176 -187v-94h246v-47h-246v-145c0 -62 -16 -144 -78 -183h371v-47h-484v47h62z" />
    <glyph glyph-name="section" unicode="&#xa7;" horiz-adv-x="531" 
d="M457 238l-258 184c-69 50 -105 98 -105 168c0 101 89 160 183 160h192v-51h-196c-58 0 -128 -27 -128 -109c0 -63 36 -95 89 -133l231 -164v-55h-8zM74 324l258 -183c70 -50 106 -98 106 -168c0 -102 -89 -161 -184 -161h-191v51h195c58 0 129 28 129 110
c0 58 -36 94 -90 132l-231 165v54h8z" />
    <glyph glyph-name="bullet" unicode="&#x2022;" horiz-adv-x="500" 
d="M249 125c-94 0 -187 63 -187 188s93 187 187 187s188 -62 188 -187s-94 -188 -188 -188z" />
    <glyph glyph-name="paragraph" unicode="&#xb6;" horiz-adv-x="641" 
d="M512 -188v938h51v-938h-51zM375 -188v376h-62c-156 0 -282 93 -282 281c0 187 125 281 282 281h113v-938h-51z" />
    <glyph glyph-name="germandbls" unicode="&#xdf;" horiz-adv-x="652" 
d="M414 -8c-49 0 -105 8 -141 20v43h9c42 -16 97 -20 136 -20c78 0 129 39 129 110c0 50 -33 73 -82 101l-55 31c-38 22 -86 43 -86 121c0 67 54 95 90 125c33 30 47 51 47 82c0 75 -63 102 -129 102c-78 0 -152 -23 -152 -144v-563h-47v504h-102v43h102v19
c0 122 82 184 199 184c86 0 176 -51 176 -133c0 -66 -29 -88 -71 -125c-20 -18 -66 -43 -66 -86c0 -54 25 -64 66 -90l40 -23c42 -25 117 -51 117 -148c0 -82 -59 -153 -180 -153z" />
    <glyph glyph-name="registered" unicode="&#xae;" horiz-adv-x="844" 
d="M422 16c-215 0 -375 152 -375 367s160 367 375 367s375 -152 375 -367s-160 -367 -375 -367zM422 59c195 0 324 140 324 324c0 183 -129 324 -324 324s-324 -141 -324 -324c0 -184 129 -324 324 -324zM293 180v406h95c82 0 163 -23 163 -125c0 -51 -20 -90 -78 -117
l90 -156v-8h-55l-78 144h-86v-144h-51zM344 367h70c47 0 86 31 86 94c0 55 -39 82 -86 82h-70v-176z" />
    <glyph glyph-name="copyright" unicode="&#xa9;" horiz-adv-x="844" 
d="M422 16c-215 0 -375 152 -375 367s160 367 375 367s375 -152 375 -367s-160 -367 -375 -367zM422 59c195 0 324 140 324 324c0 183 -129 324 -324 324s-324 -141 -324 -324c0 -184 129 -324 324 -324zM445 180c-121 0 -203 78 -203 203c0 117 90 203 203 203
c35 0 67 -4 98 -16v-43c-31 12 -63 16 -98 16c-93 0 -152 -66 -152 -160c0 -98 55 -160 152 -160c39 0 75 7 98 15v-43c-23 -7 -55 -15 -98 -15z" />
    <glyph glyph-name="trademark" unicode="&#x2122;" horiz-adv-x="703" 
d="M336 355v395h27l125 -187l121 187h24v-395h-51v270l-86 -133h-19l-90 133v-270h-51zM129 355v352h-98v43h246v-43h-97v-352h-51z" />
    <glyph glyph-name="acute" unicode="&#xb4;" horiz-adv-x="160" 
d="M0 625v16l98 140h62v-15l-137 -141h-23z" />
    <glyph glyph-name="dieresis" unicode="&#xa8;" horiz-adv-x="297" 
d="M242 625v94h55v-94h-55zM0 625v94h55v-94h-55z" />
    <glyph glyph-name="notequal" unicode="&#x2260;" 
d="M203 94v11l46 133h-155v39h168l61 180h-229v39h243l50 145h35v-12l-46 -133h155v-39h-169l-61 -180h230v-39h-244l-49 -144h-35z" />
    <glyph glyph-name="AE" unicode="&#xc6;" horiz-adv-x="855" 
d="M133 219v1c-20 -73 -36 -148 -47 -220h-55v8c63 332 180 605 262 742h500v-47h-348v-281h317v-47h-317v-207c0 -82 39 -121 121 -121h227v-47h-223c-117 0 -175 55 -175 172v47h-262zM320 703c-53 -88 -122 -254 -174 -437h249v437h-75z" />
    <glyph glyph-name="Oslash" unicode="&#xd8;" horiz-adv-x="687" 
d="M55 0v12l65 89c-45 65 -65 156 -65 258v32c0 207 82 367 289 367c88 0 153 -29 199 -78l51 70h39v-12l-65 -89c45 -66 65 -156 65 -258v-32c0 -207 -82 -367 -289 -367c-88 0 -153 28 -199 77l-51 -69h-39zM105 359c0 -84 13 -160 45 -217l364 498c-38 44 -93 71 -170 71
c-180 0 -239 -141 -239 -320v-32zM344 39c179 0 238 141 238 320v32c0 83 -13 159 -45 215l-363 -497c37 -44 92 -70 170 -70z" />
    <glyph glyph-name="infinity" unicode="&#x221e;" horiz-adv-x="598" 
d="M133 188c-86 0 -117 78 -117 156s31 156 117 156c47 0 74 -18 129 -86l31 -39c45 57 115 125 168 125c86 0 117 -74 117 -156c0 -78 -31 -156 -117 -156c-47 0 -84 22 -133 82l-35 43c-44 -59 -105 -125 -160 -125zM461 234c51 0 70 43 70 110c0 70 -19 109 -70 109
c-36 0 -100 -52 -145 -105l39 -47c41 -48 75 -67 106 -67zM133 234c50 0 99 56 137 106l-36 43c-42 51 -70 70 -101 70c-47 0 -70 -39 -70 -109c0 -71 31 -110 70 -110z" />
    <glyph glyph-name="plusminus" unicode="&#xb1;" 
d="M293 148v200h-199v39h199v199h39v-199h199v-39h-199v-200h-39zM94 -39v39h437v-39h-437z" />
    <glyph glyph-name="lessequal" unicode="&#x2264;" 
d="M523 125l-429 223v39l429 222h8v-43l-383 -199l383 -199v-43h-8zM94 -39v39h437v-39h-437z" />
    <glyph glyph-name="greaterequal" unicode="&#x2265;" 
d="M94 125v43l383 199l-383 199v43h8l429 -222v-39l-429 -223h-8zM94 -39v39h437v-39h-437z" />
    <glyph glyph-name="yen" unicode="&#xa5;" 
d="M340 203v-203h-51v203h-226v47h226v59l-234 433v8h50l211 -387l207 387h51v-8l-234 -433v-59h223v-47h-223z" />
    <glyph glyph-name="mu" unicode="&#x3bc;" horiz-adv-x="574" 
d="M508 0h-47c-16 22 -27 64 -27 121l-39 -39c-28 -27 -90 -90 -165 -90c-43 0 -78 20 -97 47v-227h-43v735h47v-391c0 -70 27 -121 97 -121c59 0 118 59 161 102l39 39v371h46v-422c0 -59 12 -102 28 -125z" />
    <glyph glyph-name="partialdiff" unicode="&#x2202;" 
d="M312 -8c-164 0 -230 121 -230 242c0 149 78 227 219 227c72 0 139 -36 179 -64v56c0 160 -82 250 -238 250h-117v47h109c207 0 297 -137 297 -277v-243c0 -152 -70 -238 -219 -238zM312 39c106 0 168 55 168 188v124c-43 30 -107 63 -179 63c-106 0 -168 -51 -168 -180
c0 -144 78 -195 179 -195z" />
    <glyph glyph-name="summation" unicode="&#x2211;" horiz-adv-x="559" 
d="M62 47l204 328l-204 328v47h430v-47h-367l199 -316v-24l-199 -316h367v-47h-430v47z" />
    <glyph glyph-name="product" unicode="&#x220f;" horiz-adv-x="687" 
d="M94 0v750h500v-750h-51v703h-398v-703h-51z" />
    <glyph glyph-name="pi" unicode="&#x3c0;" horiz-adv-x="578" 
d="M94 0v547h390v-547h-47v504h-296v-504h-47z" />
    <glyph glyph-name="integral" unicode="&#x222b;" horiz-adv-x="344" 
d="M-47 -188v40h86c70 0 98 50 98 117v625c0 97 47 156 136 156h86v-39h-86c-70 0 -97 -51 -97 -117v-625c0 -98 -47 -157 -137 -157h-86z" />
    <glyph glyph-name="ordfeminine" unicode="&#xaa;" horiz-adv-x="474" 
d="M171 323c-81 0 -122 58 -122 130v103c0 120 95 196 229 196h115v-423h-43v90c-10 -7 -20 -16 -28 -23c-38 -33 -81 -73 -151 -73zM178 360c50 0 91 33 126 64l46 43v248h-76c-111 0 -181 -59 -181 -156v-106c0 -52 25 -93 85 -93z" />
    <glyph glyph-name="ordmasculine" unicode="&#xba;" horiz-adv-x="477" 
d="M237 323c-137 0 -192 96 -192 221c0 124 59 214 192 214c140 0 193 -90 193 -214c0 -125 -50 -221 -193 -221zM237 360c113 0 149 82 149 184c0 100 -36 177 -149 177c-111 0 -148 -77 -148 -177c0 -102 37 -184 148 -184z" />
    <glyph glyph-name="Omega" unicode="&#x3a9;" horiz-adv-x="691" 
d="M47 0v55h156c-82 82 -156 174 -156 328c0 211 133 344 297 344s301 -133 301 -344c0 -154 -70 -246 -157 -328h157v-55h-211v43c84 70 152 205 152 340c0 190 -112 301 -242 301s-239 -111 -239 -301c0 -135 69 -270 153 -340v-43h-211z" />
    <glyph glyph-name="ae" unicode="&#xe6;" horiz-adv-x="844" 
d="M613 -8c-104 0 -173 49 -195 136l-43 -42c-43 -43 -94 -94 -176 -94c-94 0 -140 74 -140 168v133c0 156 109 254 265 254h297c102 0 180 -51 180 -152c0 -98 -71 -145 -168 -145h-176v-55c0 -101 55 -160 156 -160c55 0 102 16 149 39h8v-39c-36 -23 -94 -43 -157 -43z
M355 121l55 55v160c0 73 27 131 74 168h-164c-132 0 -215 -78 -215 -207v-137c0 -70 32 -125 102 -125c59 0 106 43 148 86zM457 336v-43h180c74 0 117 27 117 102c0 74 -59 109 -133 109c-105 0 -164 -63 -164 -168z" />
    <glyph glyph-name="oslash" unicode="&#xf8;" horiz-adv-x="555" 
d="M55 0v12l49 65c-34 51 -49 121 -49 200c0 161 66 278 222 278c65 0 115 -20 150 -54l34 46h39v-12l-48 -63c33 -49 48 -117 48 -195c0 -160 -59 -285 -223 -285c-65 0 -113 20 -148 54l-35 -46h-39zM102 277c0 -61 9 -118 32 -161l265 349c-28 29 -67 47 -122 47
c-132 0 -175 -102 -175 -235zM277 35c133 0 176 110 176 242c0 60 -9 114 -31 155l-265 -349c27 -30 66 -48 120 -48z" />
    <glyph glyph-name="questiondown" unicode="&#xbf;" horiz-adv-x="434" 
d="M293 563v-94l-105 -125c-57 -68 -86 -121 -86 -172c0 -82 39 -129 136 -129h137v-43h-121c-141 0 -199 59 -199 172c0 51 20 108 86 183l105 122v86h47zM297 750v-94h-55v94h55z" />
    <glyph glyph-name="exclamdown" unicode="&#xa1;" horiz-adv-x="273" 
d="M156 531l12 -531h-59l12 531h35zM168 750v-94h-55v94h55z" />
    <glyph glyph-name="logicalnot" unicode="&#xac;" 
d="M492 168v180h-398v39h437v-219h-39z" />
    <glyph glyph-name="radical" unicode="&#x221a;" 
d="M219 0l-199 539v8h39l183 -496l246 668h137v-39h-113l-254 -680h-39z" />
    <glyph glyph-name="florin" unicode="&#x192;" 
d="M31 -188v47h94c98 0 145 47 145 172v344h-133v47h133v109c0 137 62 219 199 219h82v-47h-82c-102 0 -149 -39 -149 -172v-109h180v-47h-180v-344c0 -125 -54 -219 -195 -219h-94z" />
    <glyph glyph-name="approxequal" unicode="&#x2248;" 
d="M94 391v35c19 35 62 70 117 70c70 0 152 -66 207 -66s82 23 105 66h8v-35c-19 -35 -62 -70 -117 -70c-70 0 -152 66 -207 66c-47 0 -78 -23 -105 -66h-8zM94 172v35c19 35 62 70 117 70c70 0 152 -66 207 -66s82 23 105 66h8v-35c-19 -35 -62 -70 -117 -70
c-70 0 -152 66 -207 66c-47 0 -78 -23 -105 -66h-8z" />
    <glyph glyph-name="Delta" unicode="&#x394;" horiz-adv-x="680" 
d="M39 0v23l274 727h62l273 -727v-23h-609zM98 39h492l-246 672z" />
    <glyph glyph-name="guillemotleft" unicode="&#xab;" horiz-adv-x="586" 
d="M273 152l-211 160v47l211 161h8v-43l-172 -141l172 -141v-43h-8zM523 152l-211 160v47l211 161h8v-43l-172 -141l172 -141v-43h-8z" />
    <glyph glyph-name="guillemotright" unicode="&#xbb;" horiz-adv-x="586" 
d="M312 520l211 -161v-47l-211 -160h-7v43l172 141l-172 141v43h7zM62 520l211 -161v-47l-211 -160h-7v43l172 141l-172 141v43h7z" />
    <glyph glyph-name="ellipsis" unicode="&#x2026;" horiz-adv-x="832" 
d="M109 0v94h55v-94h-55zM387 0v94h54v-94h-54zM668 0v94h55v-94h-55z" />
    <glyph glyph-name="Agrave" unicode="&#xc0;" 
d="M31 0v8c32 133 55 207 86 312c47 160 133 371 164 430h63c31 -59 117 -270 164 -430c31 -105 55 -179 86 -312v-8h-55c-22 91 -37 151 -57 219h-340c-19 -69 -35 -127 -56 -219h-55zM172 320c-6 -20 -11 -37 -16 -54h313c-5 17 -11 34 -16 54c-39 133 -98 285 -140 383
c-43 -98 -102 -250 -141 -383zM369 828l-137 141v15h63l98 -140v-16h-24z" />
    <glyph glyph-name="Atilde" unicode="&#xc3;" 
d="M31 0v8c32 133 55 207 86 312c47 160 133 371 164 430h63c31 -59 117 -270 164 -430c31 -105 55 -179 86 -312v-8h-55c-22 91 -37 151 -57 219h-340c-19 -69 -35 -127 -56 -219h-55zM172 320c-6 -20 -11 -37 -16 -54h313c-5 17 -11 34 -16 54c-39 133 -98 285 -140 383
c-43 -98 -102 -250 -141 -383zM141 828v39c15 28 50 78 97 78c55 0 114 -78 149 -78c39 0 66 43 90 78h7v-39c-15 -27 -50 -78 -97 -78c-51 0 -114 78 -149 78c-39 0 -66 -43 -90 -78h-7z" />
    <glyph glyph-name="Otilde" unicode="&#xd5;" horiz-adv-x="687" 
d="M344 -8c-207 0 -289 160 -289 367v32c0 207 82 367 289 367s289 -160 289 -367v-32c0 -207 -82 -367 -289 -367zM344 39c179 0 238 141 238 320v32c0 179 -59 320 -238 320c-180 0 -239 -141 -239 -320v-32c0 -179 59 -320 239 -320zM172 828v39c15 28 51 78 98 78
c54 0 113 -78 148 -78c39 0 66 43 90 78h8v-39c-16 -27 -51 -78 -98 -78c-51 0 -113 78 -148 78c-40 0 -67 -43 -90 -78h-8z" />
    <glyph glyph-name="OE" unicode="&#x152;" horiz-adv-x="961" 
d="M898 0h-554c-207 0 -289 152 -289 359v32c0 207 82 359 289 359h554v-47h-347v-281h316v-47h-316v-328h347v-47zM105 359c0 -179 59 -312 239 -312h156v656h-156c-180 0 -239 -133 -239 -312v-32z" />
    <glyph glyph-name="oe" unicode="&#x153;" horiz-adv-x="887" 
d="M656 -8c-97 0 -163 42 -190 117c-31 -72 -90 -117 -189 -117c-160 0 -222 125 -222 285c0 161 66 278 222 278c101 0 161 -46 192 -121c31 76 102 121 195 121c102 0 180 -51 180 -153c0 -97 -71 -144 -168 -144h-176v-63c0 -101 55 -160 156 -160c55 0 102 16 149 39h8
v-39c-36 -23 -94 -43 -157 -43zM277 35c129 0 174 104 176 232v20c-2 128 -47 225 -176 225c-132 0 -175 -102 -175 -235c0 -132 43 -242 175 -242zM500 344v-43h180c74 0 117 27 117 101c0 75 -59 110 -133 110c-105 0 -164 -63 -164 -168z" />
    <glyph glyph-name="endash" unicode="&#x2013;" horiz-adv-x="500" 
d="M31 348v39h438v-39h-438z" />
    <glyph glyph-name="emdash" unicode="&#x2014;" horiz-adv-x="1000" 
d="M31 348v39h938v-39h-938z" />
    <glyph glyph-name="quotedblleft" unicode="&#x201c;" horiz-adv-x="375" 
d="M191 750l-58 -219h-55v47l82 172h31zM348 750l-59 -219h-55v47l82 172h32z" />
    <glyph glyph-name="quotedblright" unicode="&#x201d;" horiz-adv-x="375" 
d="M184 531l58 219h55v-47l-82 -172h-31zM27 531l59 219h55v-47l-82 -172h-32z" />
    <glyph glyph-name="quoteleft" unicode="&#x2018;" horiz-adv-x="219" 
d="M191 750l-58 -219h-55v47l82 172h31z" />
    <glyph glyph-name="quoteright" unicode="&#x2019;" horiz-adv-x="219" 
d="M27 531l59 219h55v-47l-82 -172h-32z" />
    <glyph glyph-name="divide" unicode="&#xf7;" 
d="M293 488v39h39v-39h-39zM94 348v39h437v-39h-437zM293 207v39h39v-39h-39z" />
    <glyph glyph-name="lozenge" unicode="&#x25ca;" horiz-adv-x="703" 
d="M352 0l-321 375l321 375l320 -375zM352 82l253 293l-253 293l-254 -293z" />
    <glyph glyph-name="ydieresis" unicode="&#xff;" horiz-adv-x="574" 
d="M137 -188v43h101c149 0 196 75 196 223v47l-12 -8c-33 -22 -103 -54 -168 -54c-109 0 -164 70 -164 179v305h47v-305c0 -90 35 -137 125 -137c58 0 127 33 160 55l12 8v379h46v-461c0 -176 -66 -274 -242 -274h-101zM381 625v94h55v-94h-55zM139 625v94h54v-94h-54z" />
    <glyph glyph-name="Ydieresis" unicode="&#x178;" horiz-adv-x="562" 
d="M258 0v309l-235 433v8h51l211 -387l207 387h51v-8l-234 -433v-309h-51zM375 828v94h55v-94h-55zM133 828v94h54v-94h-54z" />
    <glyph glyph-name="fraction" unicode="&#x2044;" horiz-adv-x="8" 
d="M-203 0v12l375 738h31v-12l-375 -738h-31z" />
    <glyph glyph-name="Euro" unicode="&#x20ac;" 
d="M148 437h-117v47h117v16c0 160 102 258 243 258h23c55 0 120 -16 148 -31v-43h-7c-35 15 -91 27 -141 27h-23c-110 0 -192 -59 -192 -211v-16h270v-47h-270v-121h270v-46h-270v-20c0 -148 67 -211 192 -211h31c57 0 106 19 133 31h7v-43c-24 -11 -78 -35 -140 -35h-31
c-141 0 -243 74 -243 258v20h-117v46h117v121z" />
    <glyph glyph-name="guilsinglleft" unicode="&#x2039;" horiz-adv-x="336" 
d="M273 152l-211 160v47l211 161h8v-43l-172 -141l172 -141v-43h-8z" />
    <glyph glyph-name="guilsinglright" unicode="&#x203a;" horiz-adv-x="336" 
d="M62 520l211 -161v-47l-211 -160h-7v43l172 141l-172 141v43h7z" />
    <glyph glyph-name="fi" unicode="&#xfb01;" horiz-adv-x="570" 
d="M180 504v-504h-47v504h-102v43h102v39c0 105 58 164 164 164h55v-43h-55c-82 0 -117 -39 -117 -121v-39h304v-547h-47v504h-257zM484 672h-46v78h46v-78z" />
    <glyph glyph-name="fl" unicode="&#xfb02;" horiz-adv-x="578" 
d="M297 707c-82 0 -117 -39 -117 -121v-39h156v-43h-156v-504h-47v504h-102v43h102v39c0 105 58 164 164 164h187v-750h-47v707h-140z" />
    <glyph glyph-name="daggerdbl" unicode="&#x2021;" horiz-adv-x="477" 
d="M262 78v-203h-47v203h-152v43h152v383h-152v43h152v203h47v-203h152v-43h-152v-383h152v-43h-152z" />
    <glyph glyph-name="periodcentered" unicode="&#xb7;" horiz-adv-x="273" 
d="M109 313v93h55v-93h-55z" />
    <glyph glyph-name="quotesinglbase" unicode="&#x201a;" horiz-adv-x="273" 
d="M51 -125l58 219h55v-47l-82 -172h-31z" />
    <glyph glyph-name="quotedblbase" unicode="&#x201e;" horiz-adv-x="375" 
d="M199 -125l59 219h54v-47l-82 -172h-31zM43 -125l59 219h54v-47l-82 -172h-31z" />
    <glyph glyph-name="perthousand" unicode="&#x2030;" horiz-adv-x="1320" 
d="M243 320c-111 0 -167 73 -167 217c0 145 54 218 167 218c110 0 166 -76 166 -218c0 -144 -56 -217 -166 -217zM695 -4c-111 0 -167 72 -167 217c0 144 54 218 167 218c110 0 166 -77 166 -218c0 -145 -56 -217 -166 -217zM1103 -4c-112 0 -167 72 -167 217
c0 144 53 218 167 218c109 0 166 -77 166 -218c0 -145 -57 -217 -166 -217zM1103 36c75 0 117 49 117 177s-42 177 -117 177c-77 0 -120 -49 -120 -177c0 -121 43 -177 120 -177zM695 36c76 0 117 49 117 177s-41 177 -117 177s-119 -49 -119 -177c0 -121 43 -177 119 -177z
M243 360c75 0 117 49 117 177s-42 177 -117 177c-76 0 -119 -49 -119 -177c0 -121 43 -177 119 -177zM266 0v12l375 738h31v-12l-375 -738h-31z" />
    <glyph glyph-name="Acircumflex" unicode="&#xc2;" 
d="M31 0v8c32 133 55 207 86 312c47 160 133 371 164 430h63c31 -59 117 -270 164 -430c31 -105 55 -179 86 -312v-8h-55c-22 91 -37 151 -57 219h-340c-19 -69 -35 -127 -56 -219h-55zM172 320c-6 -20 -11 -37 -16 -54h313c-5 17 -11 34 -16 54c-39 133 -98 285 -140 383
c-43 -98 -102 -250 -141 -383zM156 828v16l125 140h63l125 -142v-14h-32l-125 129l-125 -129h-31z" />
    <glyph glyph-name="Ecircumflex" unicode="&#xca;" horiz-adv-x="555" 
d="M270 0c-118 0 -176 55 -176 172v578h398v-47h-347v-281h316v-47h-316v-207c0 -82 39 -121 121 -121h226v-47h-222zM133 828v16l125 140h62l125 -142v-14h-31l-125 129l-125 -129h-31z" />
    <glyph glyph-name="Aacute" unicode="&#xc1;" 
d="M31 0v8c32 133 55 207 86 312c47 160 133 371 164 430h63c31 -59 117 -270 164 -430c31 -105 55 -179 86 -312v-8h-55c-22 91 -37 151 -57 219h-340c-19 -69 -35 -127 -56 -219h-55zM172 320c-6 -20 -11 -37 -16 -54h313c-5 17 -11 34 -16 54c-39 133 -98 285 -140 383
c-43 -98 -102 -250 -141 -383zM232 828v16l98 140h63v-15l-137 -141h-24z" />
    <glyph glyph-name="Edieresis" unicode="&#xcb;" horiz-adv-x="555" 
d="M270 0c-118 0 -176 55 -176 172v578h398v-47h-347v-281h316v-47h-316v-207c0 -82 39 -121 121 -121h226v-47h-222zM383 828v94h54v-94h-54zM141 828v94h54v-94h-54z" />
    <glyph glyph-name="Egrave" unicode="&#xc8;" horiz-adv-x="555" 
d="M270 0c-118 0 -176 55 -176 172v578h398v-47h-347v-281h316v-47h-316v-207c0 -82 39 -121 121 -121h226v-47h-222zM346 828l-137 141v15h62l98 -140v-16h-23z" />
    <glyph glyph-name="Iacute" unicode="&#xcd;" horiz-adv-x="238" 
d="M94 0v750h51v-750h-51zM39 828v16l98 140h62v-15l-137 -141h-23z" />
    <glyph glyph-name="Icircumflex" unicode="&#xce;" horiz-adv-x="238" 
d="M94 0v750h51v-750h-51zM-37 828v16l125 140h62l125 -142v-14h-31l-125 129l-125 -129h-31z" />
    <glyph glyph-name="Idieresis" unicode="&#xcf;" horiz-adv-x="238" 
d="M94 0v750h51v-750h-51zM213 828v94h55v-94h-55zM-29 828v94h54v-94h-54z" />
    <glyph glyph-name="Igrave" unicode="&#xcc;" horiz-adv-x="238" 
d="M94 0v750h51v-750h-51zM176 828l-137 141v15h63l97 -140v-16h-23z" />
    <glyph glyph-name="Oacute" unicode="&#xd3;" horiz-adv-x="687" 
d="M344 -8c-207 0 -289 160 -289 367v32c0 207 82 367 289 367s289 -160 289 -367v-32c0 -207 -82 -367 -289 -367zM344 39c179 0 238 141 238 320v32c0 179 -59 320 -238 320c-180 0 -239 -141 -239 -320v-32c0 -179 59 -320 239 -320zM264 828v16l97 140h63v-15l-137 -141
h-23z" />
    <glyph glyph-name="Ocircumflex" unicode="&#xd4;" horiz-adv-x="687" 
d="M344 -8c-207 0 -289 160 -289 367v32c0 207 82 367 289 367s289 -160 289 -367v-32c0 -207 -82 -367 -289 -367zM344 39c179 0 238 141 238 320v32c0 179 -59 320 -238 320c-180 0 -239 -141 -239 -320v-32c0 -179 59 -320 239 -320zM187 828v16l125 140h63l125 -142v-14
h-31l-125 129l-125 -129h-32z" />
    <glyph glyph-name="Ograve" unicode="&#xd2;" horiz-adv-x="687" 
d="M344 -8c-207 0 -289 160 -289 367v32c0 207 82 367 289 367s289 -160 289 -367v-32c0 -207 -82 -367 -289 -367zM344 39c179 0 238 141 238 320v32c0 179 -59 320 -238 320c-180 0 -239 -141 -239 -320v-32c0 -179 59 -320 239 -320zM400 828l-136 141v15h62l98 -140v-16
h-24z" />
    <glyph glyph-name="Uacute" unicode="&#xda;" horiz-adv-x="672" 
d="M336 -8c-176 0 -250 82 -250 258v500h51v-516c0 -129 70 -195 199 -195s199 66 199 195v516h51v-500c0 -172 -78 -258 -250 -258zM256 828v16l98 140h62v-15l-137 -141h-23z" />
    <glyph glyph-name="Ucircumflex" unicode="&#xdb;" horiz-adv-x="672" 
d="M336 -8c-176 0 -250 82 -250 258v500h51v-516c0 -129 70 -195 199 -195s199 66 199 195v516h51v-500c0 -172 -78 -258 -250 -258zM180 828v16l125 140h62l125 -142v-14h-31l-125 129l-125 -129h-31z" />
    <glyph glyph-name="Ugrave" unicode="&#xd9;" horiz-adv-x="672" 
d="M336 -8c-176 0 -250 82 -250 258v500h51v-516c0 -129 70 -195 199 -195s199 66 199 195v516h51v-500c0 -172 -78 -258 -250 -258zM393 828l-137 141v15h62l98 -140v-16h-23z" />
    <glyph glyph-name="dotlessi" unicode="&#x131;" horiz-adv-x="258" 
d="M117 0v504h-101v43h148v-547h-47z" />
    <glyph glyph-name="circumflex" unicode="&#x2c6;" horiz-adv-x="312" 
d="M0 625v16l125 140h62l125 -142v-14h-31l-125 129l-125 -129h-31z" />
    <glyph glyph-name="tilde" unicode="&#x2dc;" horiz-adv-x="344" 
d="M0 625v39c16 27 51 78 98 78c54 0 113 -78 148 -78c39 0 66 43 90 78h8v-39c-16 -27 -51 -78 -98 -78c-51 0 -113 78 -148 78c-39 0 -67 -43 -90 -78h-8z" />
    <glyph glyph-name="macron" unicode="&#xaf;" horiz-adv-x="250" 
d="M0 625v39h250v-39h-250z" />
    <glyph glyph-name="breve" unicode="&#x2d8;" horiz-adv-x="305" 
d="M152 625c-101 0 -152 66 -152 141h31c0 -59 51 -102 121 -102c71 0 121 43 121 102h32c0 -75 -51 -141 -153 -141z" />
    <glyph glyph-name="dotaccent" unicode="&#x2d9;" horiz-adv-x="55" 
d="M0 625v94h55v-94h-55z" />
    <glyph glyph-name="ring" unicode="&#x2da;" horiz-adv-x="227" 
d="M113 625c-74 0 -113 47 -113 102c0 54 39 101 113 101s114 -47 114 -101c0 -55 -40 -102 -114 -102zM113 648c55 0 82 32 82 79c0 46 -27 78 -82 78c-54 0 -82 -32 -82 -78c0 -47 28 -79 82 -79z" />
    <glyph glyph-name="cedilla" unicode="&#xb8;" horiz-adv-x="199" 
d="M0 -188v40h109c43 0 55 23 55 50c0 24 -27 51 -51 63v12h24c35 -16 62 -51 62 -82c0 -51 -39 -83 -94 -83h-105z" />
    <glyph glyph-name="hungarumlaut" unicode="&#x2dd;" horiz-adv-x="328" 
d="M168 625v16l98 140h62v-15l-137 -141h-23zM0 625v16l98 140h62v-15l-137 -141h-23z" />
    <glyph glyph-name="ogonek" unicode="&#x2db;" horiz-adv-x="199" 
d="M199 -188h-105c-55 0 -94 28 -94 83c0 31 27 66 62 82h24v-12c-24 -12 -51 -39 -51 -63c0 -27 12 -50 56 -50h108v-40z" />
    <glyph glyph-name="caron" unicode="&#x2c7;" horiz-adv-x="312" 
d="M0 781h31l125 -129l125 129h31v-13l-125 -143h-62l-125 141v15z" />
    <glyph glyph-name="currency" unicode="&#xa4;" 
d="M148 437h-117v47h117v16c0 160 102 258 243 258h23c55 0 120 -16 148 -31v-43h-7c-35 15 -91 27 -141 27h-23c-110 0 -192 -59 -192 -211v-16h270v-47h-270v-121h270v-46h-270v-20c0 -148 67 -211 192 -211h31c57 0 106 19 133 31h7v-43c-24 -11 -78 -35 -140 -35h-31
c-141 0 -243 74 -243 258v20h-117v46h117v121z" />
    </font>
</defs>
</svg>
